<?xml version="1.0" standalone="no"?>
<!DOCTYPE svg PUBLIC "-//W3C//DTD SVG 1.1//EN" "http://www.w3.org/Graphics/SVG/1.1/DTD/svg11.dtd" >
<svg xmlns="http://www.w3.org/2000/svg">
<metadata>Generated by IcoMoon</metadata>
<defs>
<font id="CodazonUnlimited" horiz-adv-x="1024">
<font-face units-per-em="1024" ascent="960" descent="-64" />
<missing-glyph horiz-adv-x="1024" />
<glyph unicode="&#x20;" horiz-adv-x="512" d="" />
<glyph unicode="&#xe900;" glyph-name="arrow" d="M0 362.667c0-47.131 38.205-85.333 85.333-85.333s85.333 38.203 85.333 85.333v305.989l707.661-707.664c33.323-33.323 87.355-33.323 120.677 0 16.667 16.664 24.995 38.504 24.995 60.341s-8.328 43.677-24.995 60.339l-707.661 707.661h305.989c47.131 0 85.333 38.205 85.333 85.333s-38.203 85.333-85.333 85.333h-597.333v-597.333z" />
<glyph unicode="&#xe901;" glyph-name="arrows" d="M387.138 865.433l-365.714-365.714c-28.565-28.562-28.565-74.875 0-103.438l365.714-365.714c28.565-28.562 74.875-28.562 103.44 0 28.569 28.562 28.569 74.875 0 103.438l-240.857 240.853h701.136c40.395 0 73.143 32.745 73.143 73.143 0 40.395-32.747 73.143-73.143 73.143h-701.136l240.853 240.853c14.283 14.281 21.426 33.001 21.426 51.719s-7.141 37.438-21.422 51.719c-28.569 28.565-74.875 28.565-103.44 0z" />
<glyph unicode="&#xe902;" glyph-name="arrows-1" d="M982.636 489.364h-941.272c-22.844 0-41.364-18.52-41.364-41.364 0-22.846 18.52-41.364 41.364-41.364h941.272c22.846 0 41.364 18.518 41.364 41.364 0 22.844-18.518 41.364-41.364 41.364zM99.864 448l323.726 323.728c16.154 16.154 16.154 42.344 0 58.498-16.154 16.152-42.344 16.152-58.498 0l-352.976-352.976c-16.154-16.154-16.154-42.344 0-58.498l352.976-352.976c8.076-8.078 18.664-12.116 29.25-12.116s21.174 4.038 29.25 12.116c16.154 16.154 16.154 42.344 0 58.498l-323.728 323.726z" />
<glyph unicode="&#xe903;" glyph-name="arrows-2" d="M512 960c-22.844 0-41.364-18.52-41.364-41.364v-941.272c0-22.846 18.52-41.364 41.364-41.364 22.846 0 41.364 18.518 41.364 41.364v941.272c0.002 22.844-18.518 41.364-41.364 41.364zM894.226 359.59c-16.154 16.154-42.344 16.154-58.498 0l-323.728-323.728-323.726 323.728c-16.154 16.154-42.344 16.154-58.498 0s-16.154-42.344 0-58.498l352.976-352.976c8.076-8.078 18.664-12.116 29.248-12.116s21.174 4.038 29.25 12.116l352.976 352.976c16.152 16.154 16.152 42.344 0 58.498z" />
<glyph unicode="&#xe904;" glyph-name="arrows-3" d="M512 960c-22.844 0-41.364-18.52-41.364-41.364v-941.272c0-22.846 18.52-41.364 41.364-41.364 22.846 0 41.364 18.518 41.364 41.364v941.272c0.002 22.844-18.518 41.364-41.364 41.364zM894.226 594.908l-352.976 352.976c-16.154 16.152-42.342 16.152-58.498 0l-352.978-352.976c-16.154-16.154-16.154-42.344 0-58.498 16.154-16.152 42.344-16.152 58.498 0l323.728 323.726 323.728-323.728c8.076-8.076 18.664-12.116 29.25-12.116s21.174 4.040 29.25 12.116c16.15 16.156 16.15 42.346-0.002 58.5z" />
<glyph unicode="&#xe905;" glyph-name="arrows-4" d="M982.636 831.532c-22.846 0-41.364-18.52-41.364-41.364v-215.346h-215.348c-22.846 0-41.364-18.52-41.364-41.364s18.518-41.364 41.364-41.364h256.712c22.846 0 41.364 18.52 41.364 41.364v256.708c0 22.848-18.518 41.366-41.364 41.366zM298.074 403.682h-256.71c-22.844 0-41.364-18.518-41.364-41.364v-256.71c0-22.846 18.52-41.364 41.364-41.364s41.364 18.518 41.364 41.364v215.344h215.346c22.844 0 41.364 18.518 41.364 41.364s-18.52 41.366-41.364 41.366zM1010.96 563.604l-198.062 186.108c-44.588 44.47-99.516 79.070-158.88 100.076-107.382 38-223.13 31.908-325.924-17.154-102.798-49.060-180.336-135.214-218.332-242.592-7.622-21.538 3.66-45.174 25.196-52.794s45.174 3.66 52.794 25.196c63.22 178.662 260.006 272.574 438.67 209.356 48.018-16.992 92.43-45.016 128.436-81.042 0.306-0.306 0.616-0.606 0.932-0.902l198.522-186.542c7.984-7.504 18.16-11.22 28.318-11.22 11.016 0.002 22.014 4.378 30.15 13.042 15.644 16.646 14.828 42.824-1.82 58.468zM889.048 358.526c-21.536 7.626-45.174-3.658-52.796-25.194-16.992-48.020-45.016-92.432-81.042-128.438-134.048-133.974-352.094-133.92-486.068 0.122-0.308 0.306-0.618 0.606-0.932 0.902l-198.522 186.542c-16.648 15.642-42.824 14.828-58.47-1.82-15.644-16.648-14.828-42.826 1.82-58.47l198.060-186.108c80.468-80.266 187.35-124.476 301.030-124.506 0.042 0 0.068 0 0.11 0 113.858 0.004 220.922 44.332 301.454 124.822 44.694 44.674 79.462 99.776 100.546 159.35 7.624 21.54-3.656 45.176-25.19 52.798z" />
<glyph unicode="&#xe906;" glyph-name="bars" d="M982.636 489.364h-941.272c-22.844 0-41.364-18.518-41.364-41.364s18.52-41.364 41.364-41.364h941.272c22.846 0 41.364 18.518 41.364 41.364 0 22.844-18.518 41.364-41.364 41.364zM982.636 803.122h-941.272c-22.844 0-41.364-18.52-41.364-41.364s18.52-41.364 41.364-41.364h941.272c22.846 0 41.364 18.52 41.364 41.364s-18.518 41.364-41.364 41.364zM982.636 175.606h-941.272c-22.844 0-41.364-18.518-41.364-41.364s18.52-41.364 41.364-41.364h941.272c22.846 0 41.364 18.518 41.364 41.364s-18.518 41.364-41.364 41.364z" />
<glyph unicode="&#xe907;" glyph-name="big-star" d="M1020.224 574.196c-8.864 25.569-31.617 44.289-59.010 48.354l-266.44 39.617-115.812 240.456c-12.192 25.249-38.273 41.409-66.946 41.409s-54.754-16.161-66.946-41.409l-115.812-240.456-266.472-39.617c-27.361-4.064-50.114-22.785-58.946-48.354-8.8-25.633-2.144-53.858 17.185-73.122l195.27-194.95-45.281-270.44c-4.608-27.233 7.2-54.562 30.337-70.498 12.704-8.736 27.649-13.184 42.593-13.184 12.288 0 24.609 3.008 35.777 8.992l232.295 125.060 232.327-125.060c11.168-5.984 23.489-8.992 35.745-8.992 14.944 0 29.889 4.448 42.625 13.184 23.137 15.936 34.881 43.265 30.305 70.498l-45.313 270.44 195.334 194.95c19.297 19.297 25.921 47.521 17.185 73.122zM754.84 356.397c-16.385-16.321-23.809-39.329-20.065-61.89l45.313-270.44-232.327 124.996c-11.136 6.016-23.425 8.992-35.777 8.992-12.288 0-24.609-3.008-35.745-8.992l-232.327-124.996 45.313 270.44c3.776 22.561-3.648 45.569-20.033 61.89l-195.27 194.95 266.44 39.681c24.353 3.616 45.313 18.849 55.778 40.577l115.876 240.392 115.844-240.424c10.496-21.729 31.425-36.929 55.746-40.577l266.504-39.681-195.27-194.918z" />
<glyph unicode="&#xe908;" glyph-name="cancel-button" d="M512 960c-281.6 0-512-230.4-512-512s230.4-512 512-512 512 230.4 512 512-230.4 512-512 512zM768 263.68l-71.68-71.68-184.32 184.32-184.32-184.32-71.68 71.68 184.32 184.32-184.32 184.32 71.68 71.68 184.32-184.32 184.32 184.32 71.68-71.68-184.32-184.32 184.32-184.32z" />
<glyph unicode="&#xe909;" glyph-name="clear-button" d="M1024 857.6l-102.4 102.4-409.6-409.6-409.6 409.6-102.4-102.4 409.6-409.6-409.6-409.6 102.4-102.4 409.6 409.6 409.6-409.6 102.4 102.4-409.6 409.6z" />
<glyph unicode="&#xe90a;" glyph-name="close" d="M1011.886 947.884c-16.154 16.154-42.344 16.154-58.498 0l-941.272-941.27c-16.154-16.154-16.154-42.344 0-58.498 8.076-8.080 18.664-12.116 29.25-12.116s21.172 4.038 29.25 12.118l941.27 941.27c16.152 16.152 16.152 42.342 0 58.496zM1011.884 6.612l-941.272 941.27c-16.152 16.154-42.344 16.154-58.496 0-16.154-16.152-16.154-42.342 0-58.496l941.272-941.272c8.076-8.078 18.664-12.116 29.25-12.116s21.174 4.038 29.248 12.114c16.15 16.156 16.15 42.346-0.002 58.5z" />
<glyph unicode="&#xe90b;" glyph-name="cogwheel" d="M866.627 303.35c4.592 10.714 15.094 17.67 26.588 17.714h3.85c69.992 0 126.935 56.944 126.935 126.935s-56.944 126.933-126.935 126.933h-7.108c-9.864 0.040-18.898 5.024-24.228 13.048-0.59 2.914-1.492 5.764-2.698 8.5-4.83 10.94-2.584 23.526 5.722 32.116l2.268 2.268c0.064 0.060 0.126 0.122 0.186 0.184 23.96 23.988 37.148 55.872 37.126 89.777-0.018 33.848-13.198 65.666-37.108 89.613-0.064 0.064-0.126 0.126-0.188 0.19-23.972 23.946-55.826 37.128-89.705 37.128-0.022 0-0.048 0-0.072 0-33.906-0.018-65.776-13.24-89.719-37.212l-2.37-2.372c-8.588-8.302-21.174-10.55-32.116-5.722-0.136 0.058-0.272 0.118-0.408 0.176-10.714 4.592-17.67 15.094-17.714 26.586v3.852c0 69.99-56.944 126.933-126.935 126.933s-126.933-56.944-126.933-126.933v-7.11c-0.040-9.864-5.024-18.898-13.048-24.226-2.914-0.59-5.764-1.494-8.5-2.7-10.938-4.83-23.526-2.582-32.116 5.722l-2.452 2.454c-23.974 23.946-55.824 37.128-89.703 37.128-0.024 0-0.052 0-0.074 0-33.906-0.018-65.776-13.24-89.803-37.296-23.962-23.986-37.148-55.87-37.128-89.775 0.018-33.906 13.24-65.774 37.212-89.717l2.37-2.37c8.304-8.59 10.552-21.174 5.724-32.116-0.354-0.798-0.678-1.606-0.98-2.424-4.128-11.22-14.45-18.692-26.368-19.122h-3.266c-69.988 0-126.931-56.944-126.931-126.933 0-69.994 56.944-126.935 126.937-126.931h7.108c11.66-0.048 22.158-7 26.75-17.714 0.058-0.138 0.118-0.274 0.176-0.408 4.83-10.94 2.582-23.526-5.724-32.118l-2.37-2.368c-0.054-0.056-0.108-0.112-0.164-0.168-23.91-23.976-37.066-55.828-37.048-89.693 0.018-33.906 13.24-65.776 37.228-89.735 0.058-0.060 0.118-0.12 0.178-0.178 49.528-49.358 129.971-49.276 179.383 0.194l2.372 2.372c8.588 8.302 21.174 10.554 32.114 5.722 0.796-0.35 1.604-0.676 2.422-0.978 11.222-4.128 18.692-14.452 19.124-26.37v-3.264c0-69.992 56.944-126.935 126.933-126.935 69.994 0 126.935 56.944 126.937 126.931v7.106c0.048 11.66 7 22.16 17.714 26.752 0.138 0.060 0.272 0.118 0.406 0.176 10.942 4.83 23.528 2.584 32.118-5.722l2.454-2.452c23.972-23.946 55.824-37.13 89.703-37.128 0.024 0 0.050 0 0.074 0 33.906 0.020 65.776 13.24 89.803 37.294 49.462 49.52 49.418 130.049-0.082 179.497l-2.372 2.37c-8.302 8.59-10.55 21.174-5.722 32.118 0.060 0.132 0.118 0.266 0.174 0.402zM813.155 212.85c0.106-0.108 0.214-0.216 0.32-0.324l2.582-2.582c17.242-17.228 17.26-45.272-0.034-62.584-8.344-8.356-19.444-12.96-31.252-12.966-0.010 0-0.016 0-0.026 0-11.8 0-22.894 4.592-31.292 12.982l-2.566 2.566c-0.108 0.108-0.216 0.214-0.326 0.322-32.86 32.14-81.236 40.95-123.303 22.474-40.918-17.638-67.458-57.792-67.638-102.529v-7.272c0-24.376-19.83-44.206-44.206-44.206-24.374 0-44.204 19.832-44.204 44.206v3.85c0 0.322-0.004 0.644-0.012 0.968-1.072 45.826-29.308 85.723-72.056 101.999-41.832 17.9-89.703 8.972-122.299-22.912-0.108-0.106-0.216-0.214-0.324-0.32l-2.584-2.584c-17.224-17.244-45.27-17.262-62.516-0.036-0.050 0.050-0.102 0.1-0.15 0.148-8.302 8.336-12.874 19.4-12.882 31.168-0.008 11.808 4.586 22.91 12.93 31.264 0.048 0.046 0.094 0.096 0.142 0.142l2.476 2.478c0.108 0.108 0.216 0.216 0.322 0.326 32.138 32.854 40.948 81.23 22.478 123.297-17.636 40.922-57.794 67.464-102.533 67.644h-7.274c-24.374 0-44.204 19.832-44.204 44.206s19.832 44.204 44.204 44.206h3.852c0.322 0 0.646 0.004 0.968 0.012 45.83 1.072 85.725 29.308 102.001 72.056 17.896 41.832 8.972 89.699-22.912 122.295-0.106 0.108-0.214 0.216-0.322 0.324l-2.582 2.584c-8.354 8.346-12.958 19.444-12.964 31.252-0.008 11.806 4.586 22.91 12.998 31.332 8.346 8.354 19.444 12.958 31.252 12.964 0.010 0 0.016 0 0.026 0 11.8 0 22.894-4.592 31.292-12.982l2.568-2.566c0.106-0.108 0.216-0.216 0.324-0.322 30.834-30.16 75.334-39.776 115.467-25.578 3.792 0.486 7.51 1.496 11.042 3.010 41.042 17.59 67.678 57.808 67.856 102.623v7.274c0 24.374 19.83 44.204 44.204 44.204s44.206-19.832 44.206-44.206v-4.016c0.176-44.574 26.72-84.732 67.642-102.369 42.072-18.476 90.441-9.66 123.299 22.478 0.108 0.106 0.216 0.214 0.326 0.322l2.584 2.582c8.344 8.354 19.444 12.958 31.25 12.964 0.010 0 0.018 0 0.026 0 11.762 0 22.828-4.564 31.166-12.856 0.046-0.048 0.094-0.094 0.14-0.142 8.356-8.346 12.96-19.444 12.966-31.252 0.008-11.776-4.56-22.848-12.858-31.194-0.040-0.040-0.082-0.080-0.124-0.122l-2.566-2.568c-0.108-0.106-0.214-0.214-0.322-0.324-30.16-30.834-39.776-75.336-25.578-115.467 0.488-3.794 1.498-7.512 3.012-11.044 17.59-41.042 57.808-67.678 102.623-67.856h7.272c24.376 0 44.206-19.83 44.206-44.204s-19.832-44.206-44.206-44.206h-4.014c-44.574-0.176-84.73-26.72-102.369-67.64-18.474-42.058-9.662-90.437 22.476-123.293zM511.997 617.718c-93.581 0-169.719-76.136-169.719-169.719s76.136-169.719 169.719-169.719 169.719 76.136 169.719 169.719-76.138 169.719-169.719 169.719zM511.997 361.012c-47.966 0-86.989 39.022-86.989 86.989s39.024 86.989 86.989 86.989c47.968 0 86.989-39.024 86.989-86.989s-39.022-86.989-86.989-86.989z" />
<glyph unicode="&#xe90c;" glyph-name="credit-card" d="M928 832h-832c-52.8 0-96-43.2-96-96v-576c0-52.8 43.2-96 96-96h832c52.8 0 96 43.2 96 96v576c0 52.8-43.2 96-96 96zM96 768h832c17.348 0 32-14.654 32-32v-96h-896v96c0 17.346 14.654 32 32 32zM928 128h-832c-17.346 0-32 14.654-32 32v288h896v-288c0-17.346-14.652-32-32-32zM128 320h64v-128h-64v128zM256 320h64v-128h-64v128zM384 320h64v-128h-64v128z" />
<glyph unicode="&#xe90d;" glyph-name="down-arrow" d="M94.567 323.138l365.714-365.714c28.562-28.565 74.875-28.565 103.44 0l365.714 365.714c28.56 28.565 28.56 74.875 0 103.44-28.565 28.565-74.878 28.565-103.442 0l-240.85-240.853v701.131c0 40.395-32.747 73.143-73.143 73.143s-73.143-32.747-73.143-73.143v-701.131l-240.853 240.853c-14.281 14.281-33.001 21.422-51.719 21.422s-37.438-7.141-51.719-21.422c-28.565-28.565-28.565-74.875 0-103.44z" />
<glyph unicode="&#xe90e;" glyph-name="eye" d="M512 768c-223.318 0-416.882-130.042-512-320 95.118-189.958 288.682-320 512-320 223.312 0 416.878 130.042 512 320-95.118 189.958-288.688 320-512 320zM764.45 598.296c60.164-38.374 111.144-89.774 149.438-150.296-38.292-60.522-89.278-111.922-149.438-150.296-75.594-48.218-162.892-73.704-252.45-73.704-89.56 0-176.856 25.486-252.45 73.704-60.16 38.376-111.14 89.776-149.434 150.296 38.292 60.524 89.274 111.924 149.434 150.296 3.918 2.5 7.876 4.922 11.858 7.3-9.958-27.328-15.408-56.822-15.408-87.596 0-141.382 114.616-256 256-256 141.382 0 256 114.618 256 256 0 30.774-5.45 60.268-15.406 87.598 3.976-2.378 7.938-4.802 11.856-7.302zM512 550c0-53.020-42.98-96-96-96s-96 42.98-96 96 42.98 96 96 96 96-42.98 96-96z" />
<glyph unicode="&#xe90f;" glyph-name="favorite" d="M1024 601.844c0 162.458-131.7 294.156-294.156 294.156-86.364 0-164.030-37.218-217.844-96.49-53.814 59.272-131.482 96.49-217.844 96.49-162.458 0-294.156-131.698-294.156-294.156 0-86.362 37.218-164.030 96.49-217.844h-0.49l320-320c32-32 64-64 96-64s64 32 96 64l320 320h-0.488c59.27 53.814 96.488 131.482 96.488 217.844zM841.468 478.768l-323.978-324.258c-1.678-1.678-3.534-3.532-5.49-5.478-1.96 1.952-3.814 3.8-5.49 5.478l-323.978 324.256c-35.166 31.928-54.532 75.638-54.532 123.078 0 91.618 74.538 166.156 166.156 166.156 47.44 0 91.15-19.366 123.076-54.532l94.768-104.38 94.77 104.378c31.926 35.168 75.632 54.534 123.074 54.534 91.616 0 166.156-74.538 166.156-166.156 0-47.44-19.368-91.15-54.532-123.076z" />
<glyph unicode="&#xe910;" glyph-name="favourite-heart" d="M1023.519 595.895c-3.861 72.173-34.417 139.943-86.040 190.826-52.395 51.648-120.818 80.092-192.658 80.092-107.58 0-183.749-83.095-224.668-127.739-2.329-2.538-4.83-5.266-7.274-7.903-1.31 1.487-2.612 2.97-3.853 4.383-37.403 42.607-115.24 131.259-229.831 131.259-71.84 0-140.259-28.444-192.654-80.092-51.627-50.884-82.183-118.653-86.044-190.826-3.836-71.746 14.405-134.003 59.132-201.867 40.085-60.836 144.473-157.022 221.682-220.901 79.357-65.663 183.88-143.935 231.137-143.935 48 0 152.154 78.108 231.072 143.631 76.609 63.605 180.422 159.712 220.881 221.23 30.104 45.774 64.032 110.085 59.119 201.843zM912.925 427.906c-29.397-44.71-112.262-127.312-206.201-205.556-112.007-93.298-178.323-130.068-194.227-131.53-15.88 1.655-82.36 38.795-194.913 132.266-94.489 78.47-177.477 160.792-206.509 204.845-37.013 56.158-52.141 106.943-49.056 164.678 6.272 117.224 103.698 212.596 217.172 212.596 86.697 0 149.69-71.75 183.535-110.291 19.897-22.665 30.86-35.148 49.286-35.148 19.022 0 31.291 13.386 53.562 37.682 36.943 40.307 98.773 107.756 179.247 107.756 113.478 0 210.9-95.372 217.176-212.596 3.122-58.388-11.554-107.649-49.072-164.703z" />
<glyph unicode="&#xe911;" glyph-name="heart" d="M965.259 641.687c-26.195 131.771-119.864 216.707-240.521 216.707-67.473 0-140.502-27.783-211.944-80.174-72.236 53.978-145.265 81.761-213.532 81.761-120.657 0-215.119-85.73-240.521-219.088-38.102-197.656 84.143-460.403 442.146-603.287 3.969-1.588 7.938-2.381 11.907-2.381s7.938 0.794 11.907 2.381c357.209 146.059 478.66 408.012 440.558 604.081zM512.794 102.698c-314.344 130.183-423.095 357.209-390.549 526.288 19.051 100.812 88.905 166.698 177.017 166.698 59.535 0 126.214-28.577 192.893-83.349 11.907-9.526 28.577-9.526 40.484 0 66.679 53.184 132.564 80.967 192.099 80.967 88.112 0 157.172-64.298 177.017-164.316 32.546-167.491-75.411-393.724-388.961-526.288z" />
<glyph unicode="&#xe912;" glyph-name="interface" d="M512 797.091c-232.727 0-432.873-144.291-512-349.091 79.127-204.8 279.273-349.091 512-349.091s432.873 144.291 512 349.091c-79.127 204.8-279.273 349.091-512 349.091zM512 215.273c-130.327 0-232.727 102.4-232.727 232.727s102.4 232.727 232.727 232.727c130.327 0 232.727-102.4 232.727-232.727s-102.4-232.727-232.727-232.727zM512 587.636c-79.127 0-139.636-60.509-139.636-139.636s60.509-139.636 139.636-139.636c79.127 0 139.636 60.509 139.636 139.636s-60.509 139.636-139.636 139.636z" />
<glyph unicode="&#xe913;" glyph-name="line" d="M982.636 489.364h-941.272c-22.844 0-41.364-18.52-41.364-41.364 0-22.846 18.52-41.364 41.364-41.364h941.272c22.846 0 41.364 18.518 41.364 41.364 0 22.844-18.518 41.364-41.364 41.364z" />
<glyph unicode="&#xe914;" glyph-name="location-point" d="M512 804.713c-123.069 0-223.198-100.124-223.198-223.194s100.128-223.194 223.198-223.194 223.198 100.124 223.198 223.194-100.128 223.194-223.198 223.194zM512 418.363c-89.967 0-163.164 73.193-163.164 163.16s73.197 163.156 163.164 163.156 163.164-73.193 163.164-163.16-73.193-163.156-163.164-163.156zM512 960c-208.693 0-378.477-169.784-378.477-378.477 0-120.356 100.937-299.669 161.103-395.839 39.586-63.272 82.126-123.489 119.779-169.555 60.438-73.938 82.070-80.125 97.599-80.125 15.761 0 36.184 6.191 96.434 80.169 37.737 46.342 80.297 106.524 119.843 169.463 60.578 96.406 162.199 276.039 162.199 395.891 0 208.689-169.784 378.473-378.481 378.473zM686.662 232.379c-77.628-126.003-148.896-211.147-175.018-232.883-26.259 21.068-96.37 104.187-175.082 232.487-90.879 148.143-143 275.547-143 349.541-0.004 175.591 142.848 318.443 318.439 318.443s318.443-142.852 318.443-318.443c0.004-73.569-52.405-200.825-143.781-349.144z" />
<glyph unicode="&#xe915;" glyph-name="lock" d="M841.444 536.428h-658.888c-74.71 0-135.492-60.782-135.492-135.492v-329.444c0-74.71 60.782-135.492 135.492-135.492h658.89c74.712 0 135.492 60.782 135.492 135.492v329.444c-0.002 74.71-60.782 135.492-135.494 135.492zM894.208 71.492c0-29.094-23.67-52.762-52.762-52.762h-658.89c-29.094 0-52.762 23.67-52.762 52.762v329.444c0 29.094 23.67 52.762 52.762 52.762h658.89c29.094 0 52.762-23.67 52.762-52.762v-329.444zM512 960c-152.564 0-276.682-124.12-276.682-276.682v-188.254c0-22.844 18.52-41.364 41.364-41.364s41.364 18.52 41.364 41.364v188.254c0 106.946 87.006 193.954 193.954 193.954s193.954-87.006 193.954-193.954v-188.254c0-22.844 18.518-41.364 41.364-41.364s41.364 18.52 41.364 41.364v188.254c0 152.562-124.118 276.682-276.682 276.682z" />
<glyph unicode="&#xe916;" glyph-name="lock-1" d="M841.364 536.3h-658.726c-74.698 0-135.47-60.772-135.47-135.47v-329.36c0-74.698 60.772-135.47 135.47-135.47h658.726c74.696 0 135.466 60.77 135.466 135.47v329.36c0 74.698-60.77 135.47-135.466 135.47zM894.102 71.468c0-29.082-23.66-52.74-52.738-52.74h-658.726c-29.082 0-52.74 23.66-52.74 52.74v329.36c0 29.082 23.66 52.74 52.74 52.74v0.002h658.724c29.080 0 52.738-23.66 52.738-52.74v-329.362zM783.090 738.424c-12.672 62.402-46.814 118.95-96.136 159.222-49.254 40.216-111.376 62.354-174.956 62.354-0.088 0-0.186 0-0.274 0-73.89-0.076-143.326-28.918-195.522-81.218-52.194-52.3-80.9-121.796-80.824-195.64v-188.208c0-22.844 18.52-41.364 41.364-41.364 22.846 0 41.364 18.52 41.364 41.364v188.248c-0.052 51.79 20.068 100.502 56.652 137.16s85.256 56.878 137.046 56.928c0.068 0 0.126 0 0.194 0 91.838 0 171.738-65.292 190.018-155.31 4.544-22.386 26.372-36.862 48.768-32.304 22.388 4.546 36.854 26.38 32.306 48.768z" />
<glyph unicode="&#xe917;" glyph-name="multimedia" d="M683.14 788.86h-342.28c-187.952 0-340.86-152.91-340.86-340.86s152.908-340.86 340.86-340.86h342.28c187.952 0 340.86 152.91 340.86 340.86s-152.908 340.86-340.86 340.86zM683.14 189.87h-342.28c-142.334 0-258.13 115.796-258.13 258.13s115.796 258.13 258.13 258.13h342.28c142.334 0 258.13-115.796 258.13-258.13s-115.796-258.13-258.13-258.13zM683.14 617.72c-93.582 0-169.72-76.136-169.72-169.72s76.136-169.72 169.72-169.72 169.72 76.136 169.72 169.72-76.136 169.72-169.72 169.72zM683.14 361.010c-47.966 0-86.99 39.022-86.99 86.99 0 47.966 39.022 86.99 86.99 86.99s86.99-39.024 86.99-86.99-39.024-86.99-86.99-86.99z" />
<glyph unicode="&#xe918;" glyph-name="multimedia-1" d="M683.14 788.86h-342.28c-187.952 0-340.86-152.91-340.86-340.86s152.908-340.86 340.86-340.86h342.28c187.952 0 340.86 152.91 340.86 340.86s-152.908 340.86-340.86 340.86zM683.14 189.87h-342.28c-142.334 0-258.13 115.796-258.13 258.13s115.796 258.13 258.13 258.13h342.28c142.334 0 258.13-115.796 258.13-258.13s-115.796-258.13-258.13-258.13zM340.86 617.72c-93.582 0-169.72-76.136-169.72-169.72s76.136-169.72 169.72-169.72c93.584 0 169.72 76.136 169.72 169.72s-76.138 169.72-169.72 169.72zM340.86 361.010c-47.966 0-86.99 39.022-86.99 86.99 0 47.966 39.024 86.99 86.99 86.99s86.99-39.024 86.99-86.99-39.024-86.99-86.99-86.99z" />
<glyph unicode="&#xe919;" glyph-name="online-supermarket-cart" d="M776.16 804.321c2.297 8.141 13.252 16.428 21.708 16.428h181.705c16.345 0 29.597 13.248 29.597 29.597s-13.252 29.597-29.597 29.597h-181.705c-34.688 0-69.245-26.148-78.672-59.529l-49.087-173.726c-5.612 1.563-11.523 2.466-17.671 2.466h-587.067c-18.685 0-36.424-7.75-48.665-21.262s-18.212-31.925-16.373-50.512l27.379-277.532c3.65-36.988 35.623-65.962 72.792-65.962h455.654c34.834 0 69.241 26.341 78.333 59.963l57.086 211.101 84.584 299.37zM577.344 309.299c-2.17-8.035-12.869-16.219-21.191-16.219h-455.654c-6.499 0-13.244 6.113-13.883 12.581l-27.383 277.532c-0.205 2.052 0.257 3.765 1.33 4.949 1.077 1.188 2.735 1.815 4.803 1.815h587.071c0.288 0 0.541-0.012 0.762-0.028-0.039-0.221-0.099-0.466-0.174-0.742l-75.681-279.888zM186.894 200.178c-50.765 0-92.062-41.297-92.062-92.058s41.297-92.058 92.062-92.058c50.761 0 92.058 41.297 92.058 92.058s-41.297 92.058-92.058 92.058zM186.894 75.255c-18.125 0-32.868 14.743-32.868 32.864s14.743 32.864 32.868 32.864c18.121 0 32.864-14.743 32.864-32.864s-14.743-32.864-32.864-32.864zM478.79 200.178c-50.761 0-92.058-41.297-92.058-92.058s41.297-92.058 92.058-92.058 92.058 41.297 92.058 92.058c0 50.761-41.294 92.058-92.058 92.058zM478.79 75.255c-18.121 0-32.864 14.743-32.864 32.864s14.743 32.864 32.864 32.864 32.864-14.743 32.864-32.864c0-18.121-14.739-32.864-32.864-32.864zM1004.269 639.284h-213.662c-10.896 0-19.731-8.832-19.731-19.731s8.836-19.731 19.731-19.731h213.662c10.896 0 19.731 8.832 19.731 19.731s-8.836 19.731-19.731 19.731zM945.032 547.44h-189.961c-10.896 0-19.731-8.832-19.731-19.731s8.836-19.731 19.731-19.731h189.961c10.896 0 19.731 8.832 19.731 19.731s-8.836 19.731-19.731 19.731zM893.695 455.591h-162.309c-10.896 0-19.731-8.832-19.731-19.731s8.836-19.731 19.731-19.731h162.309c10.896 0 19.731 8.832 19.731 19.731s-8.836 19.731-19.731 19.731z" />
<glyph unicode="&#xe91a;" glyph-name="phone-call" d="M906.218 350.758c-0.124 0.016-0.248 0.034-0.372 0.050-42.192 5.564-83.8 15.93-123.578 30.774-49.464 18.592-105.718 6.602-143.302-30.562-0.056-0.054-0.11-0.11-0.166-0.164l-37.19-37.19c-90.874 57.096-167.804 134.026-224.9 224.9l37.19 37.19c0.056 0.054 0.11 0.108 0.164 0.164 37.162 37.58 49.16 93.83 30.596 143.208-14.876 39.87-25.244 81.478-30.808 123.672-0.016 0.126-0.034 0.254-0.052 0.378-9.442 66.826-67.126 116.822-134.486 116.822-0.368 0-0.748-0.002-1.118-0.004h-141.556c-4.016-0.004-8.082-0.19-12.096-0.552-36.134-3.266-68.834-20.408-92.076-48.266-23.242-27.862-34.244-63.104-30.978-99.238 0.020-0.216 0.040-0.43 0.064-0.646 16.104-151.656 68.43-299.472 151.326-427.482 75.23-118.34 177.526-220.636 295.866-295.866 127.418-82.592 274.55-134.918 425.498-151.318 0.244-0.028 0.49-0.052 0.738-0.074 4.056-0.368 8.182-0.554 12.29-0.554 0.164 0 0.328 0 0.494 0.004 36.28 0.15 70.334 14.416 95.884 40.176 25.55 25.758 39.54 59.926 39.394 96.040v141.232c1.428 68.716-48.704 127.694-116.826 137.306zM940.328 214.942c-0.010-0.344-0.012-0.684-0.012-1.028v-141.87c0.058-14.184-5.41-27.54-15.4-37.61s-23.302-15.648-37.468-15.706c-1.52-0.008-3.136 0.058-4.684 0.19-138.064 15.068-272.634 62.972-389.166 138.542-0.106 0.070-0.214 0.138-0.322 0.206-108.274 68.8-201.87 162.396-270.67 270.67-0.064 0.102-0.128 0.202-0.194 0.306-75.858 117.094-123.766 252.296-138.554 391.026-2.47 29.048 19.064 54.758 48.124 57.382 1.574 0.142 3.166 0.216 4.698 0.216h141.7c0.308 0 0.622 0.004 0.93 0.004 26.28 0 48.796-19.47 52.554-45.51 6.386-48.294 18.26-95.916 35.326-141.646 7.26-19.312 2.594-41.268-11.884-55.958l-59.886-59.888c-13.166-13.166-15.914-33.508-6.708-49.694 70.886-124.664 174.246-228.022 298.908-298.91 16.186-9.2 36.53-6.46 49.696 6.708l59.884 59.886c14.692 14.478 36.65 19.144 56.052 11.848 45.636-17.030 93.264-28.902 141.56-35.288 26.628-3.834 46.184-26.97 45.516-53.876z" />
<glyph unicode="&#xe91b;" glyph-name="picture" d="M0 864v-832h1024v832h-1024zM960 96h-896v704h896v-704zM704 640c0-53.020 42.98-96 96-96s96 42.98 96 96-42.98 96-96 96-96-42.98-96-96zM896 160h-768l192 512 256-320 128 96 192-288z" />
<glyph unicode="&#xe91c;" glyph-name="placeholder" d="M813.532 835.102c-80.542 80.542-187.63 124.898-301.532 124.898s-220.99-44.356-301.532-124.898c-80.544-80.542-124.898-187.628-124.898-301.532 0-75.312 21.944-153.726 65.218-233.064 33.65-61.692 80.3-124.204 138.652-185.796 98.34-103.806 195.526-169.038 199.616-171.762 6.946-4.632 14.944-6.948 22.944-6.948s15.998 2.316 22.946 6.948c4.090 2.726 101.276 67.956 199.616 171.762 58.352 61.59 105.002 124.102 138.652 185.796 43.274 79.338 65.218 157.752 65.218 233.064-0.002 113.904-44.356 220.99-124.9 301.532zM512.002 28.194c-80.35 59.494-343.702 272.328-343.702 505.376 0 189.518 154.182 343.702 343.7 343.702s343.7-154.184 343.702-343.702c0-233.066-263.384-445.906-343.7-505.376zM512 703.29c-93.582 0-169.72-76.136-169.72-169.72 0-93.582 76.136-169.72 169.72-169.72s169.722 76.136 169.72 169.72c0 93.584-76.138 169.72-169.72 169.72zM512 446.58c-47.966 0-86.99 39.024-86.99 86.99s39.024 86.99 86.99 86.99c47.968 0 86.99-39.024 86.99-86.99s-39.022-86.99-86.99-86.99z" />
<glyph unicode="&#xe91d;" glyph-name="profile" d="M1024 448c0 282.307-229.693 512-512 512s-512-229.693-512-512c0-149.113 64.121-283.518 166.186-377.167l-0.484-0.428 16.607-14.001c1.080-0.912 2.253-1.657 3.333-2.551 8.825-7.317 17.967-14.262 27.276-20.983 3.016-2.178 6.032-4.357 9.104-6.479 9.942-6.851 20.145-13.349 30.571-19.512 2.271-1.341 4.561-2.644 6.851-3.947 11.413-6.498 23.068-12.623 35.002-18.246 0.875-0.41 1.769-0.782 2.644-1.192 38.893-18.078 80.412-31.353 123.83-39.191 1.136-0.205 2.271-0.41 3.426-0.614 13.48-2.327 27.108-4.189 40.904-5.437 1.676-0.149 3.351-0.242 5.046-0.391 13.74-1.136 27.629-1.862 41.705-1.862 13.945 0 27.704 0.726 41.37 1.825 1.731 0.149 3.463 0.242 5.194 0.391 13.684 1.247 27.201 3.053 40.55 5.343 1.154 0.205 2.327 0.41 3.482 0.633 42.766 7.671 83.689 20.648 122.079 38.26 1.415 0.652 2.849 1.266 4.264 1.936 11.487 5.399 22.714 11.227 33.718 17.427 2.737 1.545 5.455 3.109 8.173 4.71 10.017 5.902 19.866 12.065 29.435 18.618 3.444 2.346 6.814 4.822 10.221 7.28 8.173 5.883 16.198 11.953 23.999 18.302 1.731 1.396 3.593 2.607 5.288 4.040l17.036 14.224-0.503 0.428c102.959 93.687 167.694 228.706 167.694 378.582zM37.236 448c0 261.79 212.973 474.764 474.764 474.764s474.764-212.973 474.764-474.764c0-141.070-61.905-267.897-159.912-354.918-5.474 3.779-10.985 7.168-16.626 9.998l-157.64 78.811c-14.15 7.075-22.938 21.299-22.938 37.106v55.054c3.649 4.506 7.503 9.607 11.487 15.211 20.406 28.821 36.771 60.881 48.705 95.381 23.589 11.208 38.819 34.704 38.819 61.235v66.001c0 16.142-5.921 31.8-16.514 44.106v86.891c0.968 9.681 4.394 64.195-35.058 109.177-34.313 39.173-89.851 59.001-165.087 59.001s-130.774-19.828-165.087-58.982c-39.452-44.982-36.026-99.533-35.058-109.177v-86.891c-10.575-12.307-16.514-27.965-16.514-44.106v-66.001c0-20.499 9.197-39.619 24.948-52.522 15.081-59.075 46.117-103.796 57.586-118.952v-53.881c0-15.192-8.285-29.156-21.634-36.454l-147.214-80.3c-4.692-2.551-9.346-5.53-14.001-8.862-96.796 86.984-157.789 213.029-157.789 353.075z" />
<glyph unicode="&#xe91e;" glyph-name="profile-1" d="M1024 448c0 282.307-229.693 512-512 512s-512-229.693-512-512c0-149.113 64.121-283.518 166.186-377.167l-0.484-0.428 16.607-14.001c1.080-0.912 2.253-1.657 3.333-2.551 8.825-7.317 17.967-14.262 27.276-20.983 3.016-2.178 6.032-4.357 9.104-6.479 9.942-6.851 20.145-13.349 30.571-19.512 2.271-1.341 4.561-2.644 6.851-3.947 11.413-6.498 23.068-12.623 35.002-18.246 0.875-0.41 1.769-0.782 2.644-1.192 38.893-18.078 80.412-31.353 123.83-39.191 1.136-0.205 2.271-0.41 3.426-0.614 13.48-2.327 27.108-4.189 40.904-5.437 1.676-0.149 3.351-0.242 5.046-0.391 13.74-1.136 27.629-1.862 41.705-1.862 13.945 0 27.704 0.726 41.37 1.825 1.731 0.149 3.463 0.242 5.194 0.391 13.684 1.247 27.201 3.053 40.55 5.343 1.154 0.205 2.327 0.41 3.482 0.633 42.766 7.671 83.689 20.648 122.079 38.26 1.415 0.652 2.849 1.266 4.264 1.936 11.487 5.399 22.714 11.227 33.718 17.427 2.737 1.545 5.455 3.109 8.173 4.71 10.017 5.902 19.866 12.065 29.435 18.618 3.444 2.346 6.814 4.822 10.221 7.28 8.173 5.883 16.198 11.953 23.999 18.302 1.731 1.396 3.593 2.607 5.288 4.040l17.036 14.224-0.503 0.428c102.959 93.687 167.694 228.706 167.694 378.582zM37.236 448c0 261.79 212.973 474.764 474.764 474.764s474.764-212.973 474.764-474.764c0-141.070-61.905-267.897-159.912-354.918-5.474 3.779-10.985 7.168-16.626 9.998l-157.64 78.811c-14.15 7.075-22.938 21.299-22.938 37.106v55.054c3.649 4.506 7.503 9.607 11.487 15.211 20.406 28.821 36.771 60.881 48.705 95.381 23.589 11.208 38.819 34.704 38.819 61.235v66.001c0 16.142-5.921 31.8-16.514 44.106v86.891c0.968 9.663 4.394 64.195-35.058 109.177-34.313 39.173-89.851 59.001-165.087 59.001s-130.774-19.828-165.087-58.982c-39.452-44.982-36.026-99.514-35.058-109.177v-86.891c-10.575-12.307-16.514-27.965-16.514-44.106v-66.001c0-20.499 9.197-39.619 24.948-52.522 15.081-59.075 46.117-103.796 57.586-118.952v-53.881c0-15.192-8.285-29.156-21.634-36.454l-147.214-80.3c-4.692-2.551-9.346-5.53-14.001-8.862-96.796 86.984-157.789 213.029-157.789 353.075zM790.509 63.87c-6.516-4.729-13.144-9.309-19.866-13.684-3.091-2.011-6.163-4.022-9.309-5.976-8.788-5.437-17.725-10.612-26.847-15.453-2.011-1.061-4.040-2.067-6.070-3.109-20.964-10.743-42.654-19.977-64.94-27.48-0.782-0.261-1.564-0.54-2.365-0.801-11.674-3.873-23.496-7.317-35.449-10.277-0.037 0-0.074-0.019-0.112-0.019-12.065-2.979-24.278-5.455-36.566-7.485-0.335-0.056-0.67-0.13-1.005-0.186-11.562-1.88-23.217-3.24-34.909-4.264-2.067-0.186-4.133-0.317-6.218-0.465-11.562-0.875-23.18-1.434-34.853-1.434-11.804 0-23.571 0.577-35.281 1.452-2.029 0.149-4.059 0.279-6.070 0.465-11.804 1.043-23.552 2.439-35.188 4.338-0.521 0.093-1.043 0.186-1.564 0.279-24.613 4.115-48.835 10.166-72.425 18.078-0.726 0.242-1.471 0.503-2.197 0.745-11.711 3.984-23.291 8.397-34.667 13.275-0.074 0.037-0.168 0.074-0.242 0.112-10.761 4.636-21.318 9.775-31.744 15.192-1.359 0.707-2.737 1.378-4.077 2.104-9.514 5.083-18.823 10.575-28.002 16.31-2.718 1.713-5.418 3.444-8.099 5.194-8.453 5.53-16.794 11.283-24.911 17.371-0.838 0.633-1.638 1.303-2.476 1.936 0.596 0.335 1.192 0.67 1.787 1.005l147.214 80.3c25.321 13.815 41.053 40.308 41.053 69.148l-0.019 67.063-4.282 5.176c-0.41 0.465-40.662 49.431-55.873 115.731l-1.694 7.373-6.349 4.115c-8.955 5.79-14.317 15.472-14.317 25.917v66.001c0 8.657 3.668 16.719 10.37 22.77l6.144 5.548v103.703l-0.168 2.439c-0.056 0.447-5.548 45.224 25.991 81.175 26.922 30.683 73.058 46.266 137.086 46.266 63.786 0 109.773-15.453 136.769-45.912 31.502-35.579 26.345-81.194 26.307-81.566l-0.168-106.142 6.144-5.548c6.684-6.032 10.37-14.113 10.37-22.77v-66.001c0-13.275-9.030-25.321-21.988-29.324l-9.253-2.849-2.979-9.216c-10.985-34.127-26.624-65.648-46.471-93.687-4.878-6.889-9.626-12.995-13.703-17.669l-4.617-5.269v-68.869c0-30.013 16.682-57.009 43.529-70.414l157.64-78.811c1.005-0.503 1.992-1.024 2.979-1.545-1.992-1.508-4.040-2.904-6.051-4.357z" />
<glyph unicode="&#xe91f;" glyph-name="right-arrow" d="M982.636 489.364h-941.272c-22.844 0-41.364-18.52-41.364-41.364 0-22.846 18.52-41.364 41.364-41.364h941.272c22.846 0 41.364 18.518 41.364 41.364 0 22.844-18.518 41.364-41.364 41.364zM1011.884 477.25l-352.976 352.976c-16.154 16.152-42.344 16.152-58.498 0-16.152-16.154-16.152-42.344 0-58.498l323.728-323.728-323.728-323.726c-16.152-16.154-16.152-42.344 0-58.498 8.076-8.078 18.664-12.116 29.25-12.116s21.174 4.038 29.25 12.116l352.976 352.976c16.152 16.154 16.152 42.344-0.002 58.498z" />
<glyph unicode="&#xe920;" glyph-name="rounded-add-button" d="M563.2 704h-102.4v-204.8h-204.8v-102.4h204.8v-204.8h102.4v204.8h204.8v102.4h-204.8v204.8zM512 960c-281.6 0-512-230.4-512-512s230.4-512 512-512 512 230.4 512 512-230.4 512-512 512zM512 38.4c-225.28 0-409.6 184.32-409.6 409.6s184.32 409.6 409.6 409.6 409.6-184.32 409.6-409.6-184.32-409.6-409.6-409.6z" />
<glyph unicode="&#xe921;" glyph-name="search" d="M740.136 833.012c-81.89 81.89-190.764 126.988-306.574 126.988s-224.686-45.098-306.574-126.988c-81.89-81.888-126.988-190.764-126.988-306.572 0-115.81 45.098-224.686 126.988-306.574 81.888-81.888 190.766-126.988 306.574-126.988s224.684 45.1 306.574 126.988c81.888 81.888 126.988 190.764 126.988 306.574-0.002 115.808-45.1 224.684-126.988 306.572zM433.56 175.608c-193.45 0-350.832 157.382-350.832 350.832s157.384 350.832 350.834 350.832 350.83-157.382 350.83-350.832-157.382-350.832-350.832-350.832zM1011.886 6.614l-271.924 271.922c-16.154 16.154-42.344 16.154-58.498 0-16.152-16.154-16.152-42.344 0-58.498l271.922-271.922c8.076-8.078 18.664-12.116 29.25-12.116s21.174 4.038 29.25 12.116c16.152 16.154 16.152 42.344 0 58.498z" />
<glyph unicode="&#xe922;" glyph-name="shapes" d="M1022.306 640.139c-14.947 164.519-131.395 283.881-277.126 283.881-97.089 0-185.985-52.247-236.006-135.983-49.568 84.82-134.821 136.003-230.354 136.003-145.712 0-262.179-119.362-277.106-283.881-1.182-7.267-6.026-45.512 8.705-107.881 21.23-89.96 70.266-171.786 141.773-236.577l356.747-323.741 362.871 323.721c71.507 64.811 120.544 146.618 141.773 236.597 14.731 62.349 9.886 100.594 8.724 107.861zM315.075 764.956c-86.868 0-157.548-70.68-157.548-157.548 0-10.89-8.803-19.693-19.693-19.693s-19.693 8.803-19.693 19.693c0 108.59 88.345 196.934 196.934 196.934 10.89 0 19.693-8.803 19.693-19.693s-8.823-19.693-19.693-19.693z" />
<glyph unicode="&#xe923;" glyph-name="shelter" d="M1009.665 534.785l-468.626 366.601c-8.009 6.268-18.32 9.718-29.043 9.718-10.719 0-21.031-3.453-29.036-9.715l-468.626-366.604c-18.371-14.369-14.467-30.962-12.829-35.705 1.632-4.742 8.782-20.22 32.106-20.22h93.281v-451.564c0-23.381 19.019-42.4 42.4-42.4h219.464c23.378 0 42.4 19.019 42.4 42.4v202.090h161.685v-202.090c0-23.381 19.019-42.4 42.4-42.4h219.464c23.381 0 42.4 19.019 42.4 42.4v451.564h93.281c23.324 0 30.471 15.478 32.106 20.22s5.543 21.336-12.829 35.705zM888.627 529.741c-23.381 0-42.4-19.019-42.4-42.4v-451.564h-202.504v202.090c0 23.381-19.019 42.4-42.4 42.4h-178.645c-23.381 0-42.4-19.019-42.4-42.4v-202.090h-202.504v451.564c0 23.381-19.023 42.4-42.4 42.4h-44.91l421.535 329.763 421.535-329.763h-44.904z" />
<glyph unicode="&#xe924;" glyph-name="shop" d="M382.499 171.375c-47.235 0-85.531-38.275-85.531-85.492 0-47.254 38.296-85.531 85.531-85.531 47.217 0 85.512 38.277 85.512 85.531 0 47.213-38.296 85.492-85.512 85.492zM755.745 171.375c-47.254 0-85.531-38.275-85.531-85.492 0-47.254 38.277-85.531 85.531-85.531 47.219 0 85.533 38.277 85.533 85.531 0 47.213-38.314 85.492-85.533 85.492zM970.582 640.161l-473.743 0.039c-23.688 0-42.891-19.203-42.891-42.891s19.203-42.891 42.891-42.891l419.145 0.021-26.59-89.983-426.144-0.091c-21.974 0-39.79-17.816-39.79-39.79 0-21.976 17.816-39.79 39.79-39.79l402.588-0.157-24.996-84.158h-480.241l-31.863 254.007-30.424 247.457c-2.476 19.581-16.673 35.658-35.799 40.536l-202.567 51.675c-25.718 6.565-51.884-8.969-58.445-34.687s8.969-51.886 34.687-58.445l170.874-43.591 66.541-499.372c0 0 2.263-58.255 55.169-58.255h530.829c44.478 0 53.077 46.38 53.077 46.38l105.203 312.448c0 0.041 31.193 81.537-47.299 81.537z" />
<glyph unicode="&#xe925;" glyph-name="show-more-button-with-three-dots" d="M512 704c70.4 0 128 57.6 128 128s-57.6 128-128 128-128-57.6-128-128 57.6-128 128-128zM512 576c-70.4 0-128-57.6-128-128s57.6-128 128-128 128 57.6 128 128-57.6 128-128 128zM512 192c-70.4 0-128-57.6-128-128s57.6-128 128-128 128 57.6 128 128-57.6 128-128 128z" />
<glyph unicode="&#xe926;" glyph-name="signs" d="M512 960c-22.844 0-41.364-18.52-41.364-41.364v-941.272c0-22.846 18.52-41.364 41.364-41.364 22.846 0 41.364 18.518 41.364 41.364v941.272c0 22.844-18.518 41.364-41.364 41.364zM982.636 489.364h-941.272c-22.844 0-41.364-18.52-41.364-41.364 0-22.846 18.52-41.364 41.364-41.364h941.272c22.846 0 41.364 18.518 41.364 41.364 0 22.844-18.518 41.364-41.364 41.364z" />
<glyph unicode="&#xe927;" glyph-name="signs-1" d="M982.636 593.95h-732.1c-22.844 0-41.364-18.52-41.364-41.364s18.52-41.364 41.364-41.364h732.1c22.846 0 41.364 18.52 41.364 41.364s-18.518 41.364-41.364 41.364zM982.636 803.122h-941.272c-22.844 0-41.364-18.52-41.364-41.364s18.52-41.364 41.364-41.364h941.272c22.846 0 41.364 18.52 41.364 41.364s-18.518 41.364-41.364 41.364zM982.636 384.78h-941.272c-22.844 0-41.364-18.518-41.364-41.364s18.52-41.364 41.364-41.364h941.272c22.846 0 41.364 18.518 41.364 41.364s-18.518 41.364-41.364 41.364zM982.636 175.606h-732.1c-22.844 0-41.364-18.518-41.364-41.364s18.52-41.364 41.364-41.364h732.1c22.846 0 41.364 18.518 41.364 41.364s-18.518 41.364-41.364 41.364z" />
<glyph unicode="&#xe928;" glyph-name="vibrating-phone" d="M994.521 192.358l-148.002 148.065c-19.876 19.774-46.492 30.67-74.933 30.67-29.598 0-57.544-11.654-78.673-32.796l-57.611-57.599c-44.767 24.883-104.268 59.107-166.044 120.882-61.703 61.725-95.931 121.052-120.942 166.061l57.666 57.624c42.874 42.963 43.751 111.889 1.961 153.64l-147.972 147.977c-19.821 19.876-46.436 30.822-74.95 30.822-28.937 0-56.311-11.141-77.318-31.419-12.708-10.234-76.483-66.533-100.252-182.637-33.279-162.511 43.183-318.871 263.919-539.696 246.581-246.505 457.087-265.665 515.732-265.665 12.209 0 19.575 0.754 21.541 0.983 114.998 13.479 156.173 64.55 186.237 101.841 38.955 48.33 38.82 111.923-0.36 151.247zM945.411 80.994c-28.259-35.050-54.947-68.151-144.16-78.61-0.047-0.004-4.927-0.551-14.149-0.551-52.469 0-241.493 17.817-470.799 247.051-203.559 203.644-275.005 343.296-246.602 482.021 20.732 101.269 75.772 144.312 77.911 145.947l1.898 1.402 1.665 1.669c9.188 9.18 21.206 14.238 33.842 14.238 11.505 0 22.146-4.312 29.992-12.183l148.006-148.010c17.029-17.012 16.123-45.64-1.995-63.796l-66.287-66.283c-16.995-18.719-14.996-44.018-5.634-60.492 27.014-48.749 64.016-115.515 135.217-186.737 70.964-70.964 137.632-107.937 186.246-134.9 4.867-2.732 14.915-7.316 27.492-7.316 14.852 0 28.488 6.286 38.583 17.745l61.204 61.187c9.137 9.142 21.117 14.178 33.737 14.178 11.531 0 22.227-4.325 30.055-12.111l147.905-147.968c18.787-18.855 11.031-47.682-4.126-66.482zM620.369 802.022c54.591-6.282 118.87-39.349 163.756-84.24 45.305-45.305 78.453-110.237 84.439-165.421 1.766-16.279 15.534-28.344 31.546-28.344 1.144 0 2.304 0.064 3.465 0.186 17.444 1.894 30.051 17.567 28.158 35.012-7.57 69.756-46.915 147.731-102.675 203.495-55.239 55.243-132.417 94.491-201.424 102.434-17.423 2.021-33.186-10.501-35.194-27.929s10.493-33.186 27.929-35.194zM590.686 668.931c29.526-3.402 70.388-25.302 97.156-52.071 26.997-27.001 48.94-68.253 52.172-98.096 1.766-16.284 15.534-28.348 31.546-28.348 1.144 0 2.3 0.064 3.461 0.186 17.444 1.894 30.055 17.567 28.162 35.012-5.524 50.952-39.349 105.111-70.417 136.179-30.788 30.792-84.418 64.457-134.815 70.265-17.449 2.029-33.19-10.497-35.198-27.925-2.004-17.432 10.501-33.194 27.933-35.202z" />
<glyph unicode="&#xe929;" glyph-name="web" d="M934.165 807.597c-116.143 115.086-301.862 117.487-422.165 9.217-120.335 108.27-305.99 105.869-422.197-9.217-119.727-118.543-119.727-310.727 0-429.334 34.212-33.892 353.74-350.156 353.74-350.156 37.861-37.509 99.084-37.509 136.913 0 0 0 349.868 346.347 353.74 350.156 119.759 118.607 119.759 310.791-0.032 429.334zM888.559 423.453l-353.74-350.156c-12.578-12.514-33.092-12.514-45.606 0l-353.74 350.156c-94.412 93.452-94.412 245.503 0 338.954 91.019 90.091 237.342 93.26 333.13 7.105l43.397-39.045 43.365 39.045c95.82 86.155 242.142 83.018 333.162-7.105 94.412-93.42 94.412-245.471 0.032-338.954zM296.005 736.036c-0.064 0-0.064-0.032-0.128-0.032-75.049-0.064-135.889-60.904-135.889-135.985v0c0-8.833 7.169-16.002 16.002-16.002s16.002 7.169 16.002 16.002v0.032c0 57.415 46.566 103.981 103.981 103.981h0.032c8.833 0 16.002 7.169 16.002 16.002s-7.137 16.002-16.002 16.002z" />
</font>
</defs>
</svg>
